上海醇音

发烧论坛

注册

 

返回列表 12345678» / 31
发新话题 回复该主题

断版-美国24K版本金响宴-本人TEAC光驱完美精抓轨-供PCHIFI友们一... [复制链接]

1#
银光图片
本人现在逐渐在玩PCHIFI,把收藏的大量CD抓轨后欣赏,经本坛多位PCHIFI烧友多次要求给他们发布些抓轨的发烧碟,所以这次发布一张断版好碟 ,常年上榜的发烧天碟-美国24K版本金响宴。音质超越现在所谓1:1直刻CD,这张美国24K金版如台湾刘汉盛说的HIFI中难能可贵的模拟味是所有版本中最棒的。采用TEAC光驱用EAC软件1.2速精抓轨制成,最大程度还原CD的本来面貌,(对于EAC抓轨好坏分辨不清的请绕道,对于抓轨设置分辨不清的也请绕道)压缩包你三证齐全(何为三证,玩EAC抓轨高要求的都知道,分辨抓轨好坏看抓轨的LOG,整轨WAV+CUE文件,唱片封面,封底,碟面扫描图)。所有对PCHIFI感兴趣的烧友一并聆听鉴赏。 本张唱片系本人抓轨,可以说目前网络上即使有这张唱片的EAC抓轨版也是不及这张的。如大家感兴趣,我可以多贴一些本人精抓轨制作的唱片。  


       此张录制于1999年的唱片在专辑封面上有这样一句话:The best Chinese music for the world。因此这张唱片是一盘纯粹的什锦炒饭:郭文景创作的以中国打击乐及人声演绎的《无词剧》;无伴奏童声合唱《小白菜》;陕西民歌《三十里铺》;云南少数民族意味的《彝舞曲》和《云之南》;乐器独奏《高山流水》、《塞外情思》(中胡)。唱片中还令人意外地出现了勃拉姆斯创作于1868年的《摇篮曲》和佛兰芝(现比利时)作曲家拉奈创作的《回响》。唱片中由马可根据河北民歌改编中央广播少年合唱团演唱的《小白菜》尤为出色。此曲用丹麦B&K话筒收录,使得无伴奏的童声合唱显得十分纯净、真挚;而领唱与伴唱的和声部份则显得层次分明,很好地营造出了一种哀伤的声音氛围。
  由信天游曲调转化而来的男女对唱《三十里铺》在编配与演唱上都让人略感失望。乐器伴奏在处理上过于潮流化,让人听后感到复杂和华丽。而周灵燕与魏金栋的对唱也一样处理的“过”了。陕西民歌以粗线条的苍凉打动人,而唱片中的《三十里铺》在每一个方面都处理得过于细腻,整首歌处处显出优美和优雅,这样反而隐藏了音乐最能感染人的东西:原始的真挚情感。
  同样的问题出现在王惠然作曲的《彝舞曲》和郭文景作曲的《云之南》两个作品中。如何将取自少数民族的音乐素材重新创作,并且充分展示出其原有的民俗风情和人文意境看来仅凭灵感是不够的。
  唱片中还有两首无伴奏诗词朗诵:方明的《念奴娇·赤壁怀古》(北宋·苏轼);雅坤的《钗头凤》(南宋·陆游)。中国古诗词有着很好的意境,但用这样一本正经(方明做豪气干云状;雅坤露深沉忧伤样)的方式处理则给人做作之感。况且宋词本身的节奏与韵律是与音乐紧密相联的,朗诵很难有真正的体现。
  不知是有意或是偶然,唱片第一首曲子是当今著名先锋音乐家郭文景用纯粹的中国打击乐创作演绎的《无词剧》,而最后的曲目则是对永乐大钟敲击后声音回响的录音。永乐大钟铸于明朝永乐初年,重42吨,撞击大钟的声响和余音代表着中国的原始音乐;而郭文景的《无词剧》用锣鼓镲钹及人声这样原始的乐器和手段创作出了令人懵懂的先锋音乐。或许它们代表着不同时代不同的中国音乐之声。
  《Sound of Rhythm》这张唱片录制用的是小型调音台,这使得噪声降低,声音更为逼真,而且它的母碟应用美国Alloy Gold 制造,保证了声音质量,从技术运用上说,这张唱片可以称为经典。


1.《无词剧》
2.《朝圣》
3.《小白菜》
4.《三十里铺》
5.《彝舞曲》
6.《摇篮曲》
7.《云之南》
8.《高山流水》
9.《回声》
10.《塞外情思DDD》
11.《塞外情思ADD》
12.《男声朗诵——念奴娇·赤壁怀古 》
13.《女声朗诵——钗头凤》
14.《永乐大钟》


下载链接
***** 该内容需会员回复才可浏览 *****
压缩包密码
***** 该内容需会员回复才可浏览 *****
11.jpg (, 下载次数:7)

jpg(2014/12/12 21:56:39 上传)

11.jpg

22.jpg (, 下载次数:2)

jpg(2014/12/12 21:56:39 上传)

22.jpg

33.jpg (, 下载次数:4)

jpg(2014/12/12 21:56:39 上传)

33.jpg

本主题由 版主 eric 于 2017/4/4 17:13:21 执行 设置高亮 操作
分享 转发
TOP
2#

这是抓轨的LOG信息,通过看LOG可以知道EAC设置是否准确。而设置准确与否关系到最大程度的还原抓轨CD。本贴只是发布些好碟供PCHIFI烧友们一起鉴赏,如果对于设置,抓轨等不理解,认为任何光驱,任何速度抓出来的音频文件是一样的,那请笑笑而过。实在没时间再做这样的辩论。

本人PCHIFI设备
音源MAC MINI+Proceed PMDT+Meitner Ma1解码
功放Chord 3300推金驰天弓
Mac Mini和Meitner Ma1连接的线是线世界白金星USB线。

Exact Audio Copy V1.0 beta 1 from 15. November 2010

EAC 抓取日志文件从11. 十二月 2014, 20:48

未知艺术家 / 未知标题

使用驱动器  :TEAC    CD-W58E   Adapter: 1  ID: 0

读取模式     : 保护
使用精确流    : 是
废除音频缓冲   : 是
使用 C2 指针 : 否

读取偏移校正                : 685
读取 Lead-In 和 Lead-Out : 是
用静音填充抓取中丢失偏移的采样       : 是
去除首尾静音块               : 否
在 CRC 计算中使用了空样本       : 是
已用接口                  : 已安装外部 ASPI 接口

所用输出格式 : 内部 WAV 函数
样本格式   : 44.100 Hz;16 Bit;立体声


被抓轨 CD 的 TOC

     音轨 |    开始    |    长度    |  起始扇区  |  结尾扇区  
    --------------------------------------------
      1 |  0:00.00 |  7:53.14 |      0 |  35488
      2 |  7:53.14 |  6:11.02 |  35489 |  63315
      3 | 14:04.16 |  4:59.41 |  63316 |  85781
      4 | 19:03.57 |  5:18.63 |  85782 | 109694
      5 | 24:22.45 |  7:06.39 | 109695 | 141683
      6 | 31:29.09 |  2:34.34 | 141684 | 153267
      7 | 34:03.43 |  6:00.63 | 153268 | 180330
      8 | 40:04.31 |  5:35.33 | 180331 | 205488
      9 | 45:39.64 |  2:06.06 | 205489 | 214944
     10 | 47:45.70 |  6:59.65 | 214945 | 246434
     11 | 54:45.60 |  7:01.29 | 246435 | 278038
     12 | 61:47.14 |  1:49.42 | 278039 | 286255
     13 | 63:36.56 |  1:11.56 | 286256 | 291636
     14 | 64:48.37 |  1:22.74 | 291637 | 297860


范围状态及错误

已选择范围

     文件名 D:\jazzshu\金响宴-美国24K版\未知艺术家 - 未知标题.wav

     峰值电平 100.0 %
0.0 X
     范围质量 99.9 %
     复制 CRC 0B03A840
     复制成功

没有错误发生

状态报告结尾

====  32FC01781623C49A8482595E3A42B91BA38CABD5DDFDF0814E26A3122838500C ====
TOP
3#

这个是要顶一下啦。
TOP
4#

有过普通版CD,好久不听了
TOP
5#

这个可以顶,同是Mac mini
TOP
6#

这个可以顶,同是Mac mini
TOP
7#

感謝老師的分享。
TOP
8#

原帖由 爵士鼠 于 2014-12-12 22:06:00 发表
这是抓轨的LOG信息,通过看LOG可以知道EAC设置是否准确。而设置准确与否关系到最大程度的还原抓轨CD。本贴只是发布些好碟供PCHIFI烧友们一起鉴赏,如果对于设置,抓轨等不理解,认为任何光驱,任何速度抓出来的音频文件是一样的,那请笑笑而过。实在没时间再做这样的辩论。

本人PCHIFI设备
音源MAC MINI+Proceed PMDT+Meitner Ma1解码
功放Chord 3


我也用eac抓轨,设置和爵士一样,不过是用Imac上的dvd rom。一直也想搞一个以前旧款的cdrom,真的有区别吗?我这里也有几个朋友玩抓轨,打算去旧货市场找找看。如果不介意的话可不可以把老兄以前比较过的rom举出来,那么我们也就少走点弯路。
最后编辑imzadi 最后编辑于 2014-12-14 09:22:21
TOP
9#

感谢老师分享
TOP
10#

原帖由 imzadi 于 2014-12-14 9:14:00 发表
[quote] 原帖由 爵士鼠 于 2014-12-12 22:06:00 发表
这是抓轨的LOG信息,通过看LOG可以知道EAC设置是否准确。而设置准确与否关系到最大程度的还原抓轨CD。本贴只是发布些好碟供PCHIFI烧友们一起鉴赏,如果对于设置,抓轨等不理解,认为任何光驱,任何速度抓出来的音频文件是一样的,那请笑笑而过。实在没时间再做这样的辩论。

本人PCHIFI设备


你DVD光驱连低速抓轨的功能也没有吧。很多烧友也EAC抓轨过,你们自己看看是不是连低速抓轨都不行?
TOP
发新话题 回复该主题